#TITLE:discotheque;
#SUBTITLE:;
#ARTIST:Unknown artist;
#TITLETRANSLIT:;
#SUBTITLETRANSLIT:;
#ARTISTTRANSLIT:;
#CREDIT:;
#BANNER:;
#BACKGROUND:;
#LYRICSPATH:;
#CDTITLE:;
#MUSIC:discotheque.mp3;
#OFFSET:-0.858;
#SAMPLESTART:42.799;
#SAMPLELENGTH:12.000;
#SELECTABLE:YES;
#BPMS:0.000=143.058;
#STOPS:;
#BGCHANGES:;
// cache tags:
#FIRSTBEAT:0.000;
#LASTBEAT:558.250;
#SONGFILENAME:Songs/9you/discotheque/discotheque.sm;
#HASMUSIC:1;
#HASBANNER:0;
#MUSICLENGTH:239.154;
// end cache tags

//---------------dance-single - ----------------
#NOTES:
     dance-single:
     :
     Medium:
     1:
     0.745,1.000,0.447,0.414,1.000,1036.000,107.000,99.000,0.000,5.000:
1000
0000
1000
0000
0100
0000
0000
0100
0000
0010
0010
0000
0000
2000
0000
3100
,
0010
0000
0000
0100
0010
0000
0000
1000
0000
0000
0200
0000
0000
0000
0000
0000
,
0000
0000
0300
0000
0000
0010
0000
0010
2000
0000
0100
3000
0020
0000
0000
0130
,
0000
0000
0000
0100
0010
0000
1000
0000
0100
0010
0000
0000
0010
0000
0100
0000
,
1000
0100
0010
0010
0010
0000
0100
2000
0000
0100
3010
0000
0100
0000
0000
0010
,
0000
1000
0100
0010
0100
0010
0000
1000
,
0100
0000
0100
0100
0000
0100
0010
0000
1000
0000
0010
0100
0000
0010
0100
0000
,
0001
0001
0000
0002
0000
0000
1003
0000
0010
0000
0100
0010
0000
0100
0000
0010
,
0010
0000
0010
0000
1000
0010
0100
0000
0010
0000
0010
0100
1000
0000
0000
0010
,
0100
0000
0010
0010
0000
1001
0000
0001
0001
0000
0001
0000
1001
0000
0010
0000
,
0010
0010
0000
0100
1010
0000
0100
0000
0010
0000
1000
0000
0010
0000
0100
0000
,
0001
0100
0000
0010
1000
0000
0010
0000
0100
0000
0001
1000
0000
0010
0000
0100
,
0010
0000
1000
0000
0001
0000
0100
0010
0000
0100
0000
0010
1000
0000
0001
0000
,
0100
0000
0010
0000
0001
0001
0000
0001
0000
0000
0020
0000
0000
0000
0000
0000
,
0000
0000
0030
1000
0000
0100
0000
0010
0010
0000
0100
0000
1000
0000
0100
0000
,
0010
0010
0000
0100
0000
0010
0000
1000
0000
0100
0000
0010
0010
0000
0000
0100
,
0000
0010
0000
1000
0000
0200
0000
0000
0000
0000
0000
0000
0000
0000
0000
0000
,
0000
0000
0310
0010
1000
0100
0010
0010
,
0100
0000
0010
0000
1000
0200
0000
0000
0000
0010
0300
0000
0010
0000
0000
0100
,
1000
0100
0000
0020
0000
0000
0030
0100
0000
0000
0020
0000
0000
2030
0000
0100
,
3000
0010
0000
0010
0000
0100
0001
0000
1000
0010
0000
0100
0010
0000
0100
0000
,
0001
0000
0100
0000
0010
1000
0000
0010
0100
0010
0000
0100
0010
0000
0100
0000
,
0010
1000
0010
0000
0100
0010
0000
0100
0010
0000
0100
0001
1000
0000
0010
0000
,
0100
0010
0000
1000
0001
0000
0100
0000
0010
0000
1000
0000
0010
0100
0000
0001
,
0000
1000
0000
0010
0000
0100
0000
0010
0100
0000
0001
0000
1000
0010
0000
0100
,
0000
0010
0000
0100
0001
0000
1000
0000
0010
0000
0100
0010
0000
0100
0000
0000
,
0010
1000
0000
0010
0100
0000
0000
0010
0000
1001
0000
0100
0010
0000
0000
0100
,
0010
0000
1000
0000
0010
0000
0100
0000
0010
0100
0000
0010
0000
0000
1000
0010
,
0000
0010
0100
0000
0010
0000
0000
0100
0000
0010
1000
0001
0000
0100
0000
0010
,
0000
0010
0000
0010
0100
1000
0100
0010
0000
0010
0100
0000
0010
0000
0000
0100
,
0010
0000
0100
0010
0000
1000
0100
0010
0000
0010
0100
0000
0010
0000
1000
0000
,
0100
0000
0000
0020
0000
0000
0000
0030
0200
0000
0000
0000
0320
0000
0000
0000
,
0000
2030
0000
0000
3010
0000
0000
0000
0100
0010
0000
0100
0020
0000
0000
0000
,
0030
1000
0001
0000
0100
0000
0010
0000
0100
0010
1000
0000
0100
0010
0000
0000
,
0010
0200
0000
0000
0000
0300
0010
0020
0000
0000
0000
0000
0030
1000
0000
0000
,
0100
0000
0000
0200
0000
0000
0000
0000
0000
0000
0000
0310
0000
0010
0000
0010
,
0000
1000
0100
0000
0020
0000
0000
0000
0000
0000
0000
0000
0000
0000
0000
0000
,
0000
0000
0000
0000
0000
0030
0100
0010
0000
0010
0000
0010
0000
0010
0000
1000
,
0000
0010
0000
0100
0000
0010
0100
0000
0001
0000
0100
0000
0010
0000
1000
0000
,
0010
0000
0100
0000
0010
0100
0000
0001
0000
1000
0000
0010
0000
0100
0000
0010
,
0000
0100
0000
0000
0010
0000
1000
0000
0100
0000
0010
0000
0100
0000
0010
0000
,
0000
0100
0000
0001
0100
0000
1010
0001
0100
0010
0100
0002
0000
0000
0000
0000
,
0000
0000
0003
0000
0010
0100
0000
0010
1000
0000
0100
0000
0010
0000
0010
0000
,
0100
0000
0010
1000
0000
0100
0000
0010
0000
0100
0010
0000
0100
0000
0010
1000
,
0000
0100
0000
0010
0000
0020
0000
0000
0000
0000
0000
0130
0000
0200
0000
0000
,
0000
0000
0000
0310
0000
0020
0000
0000
0000
0000
0030
0000
0010
0020
0000
0000
,
0000
0000
0000
0030
2000
0000
0000
0000
0000
0000
0000
0000
0000
0000
0000
0000
,
0000
0000
3000
0010
0000
0010
0000
0000
0100
0000
0010
0000
0000
0100
0000
0010
,
0000
0000
1000
0000
0100
0000
0010
0000
0010
0000
0000
0010
0000
0000
0100
0000
,
0100
0000
0010
0000
1000
0000
0000
0000
0100
0000
0010
0000
0000
0100
0000
0010
,
0100
0010
1000
0000
0100
0020
0000
0130
,
0010
0000
0100
0000
0010
0000
0000
0001
0000
0000
0020
0000
0000
0000
0000
0000
,
0000
0000
0000
0030
0100
0100
0000
0010
1000
0000
0010
0100
0001
0000
0100
0010
,
1000
0010
0000
0100
0010
0000
0100
0001
0000
0001
0000
0001
0000
0010
0000
1000
,
0010
0000
0010
0100
0000
0010
0000
0200
0000
0000
0300
0010
0000
0010
0000
0000
,
2000
0000
0000
0000
3010
0000
0010
0100
0001
0000
0010
0100
0000
0010
0000
0010
,
0001
0010
0000
0000
0000
0000
0100
0000
0000
0100
0010
0000
1000
0000
0010
0000
,
0100
0001
0000
0100
0000
0010
1000
0000
0010
0100
0010
0000
0100
0000
0010
0000
,
0100
0010
0002
0000
0010
0100
0003
0000
0010
1000
0010
0100
0010
0000
0000
0000
,
0100
0010
0100
0000
0010
0001
0000
1010
0000
0100
0010
0000
0010
0100
0000
0001
,
0100
0000
0010
1000
0000
0010
0000
0100
0010
0000
0100
0001
0000
0000
1010
0000
,
0000
0100
0010
0000
0100
0001
0000
0100
0000
0010
0100
0000
0010
1000
0000
0010
,
0000
0100
0010
0000
0100
0001
0000
1000
0000
0010
0100
0000
0010
0000
0100
0001
,
0000
0010
1000
0000
0100
0010
0000
0100
0001
0000
0110
0000
0100
0010
0000
1000
,
0000
0010
0100
0010
0000
0200
0000
0000
0300
0010
0010
0000
0002
0000
0000
0000
,
0000
0000
0003
0010
0000
0010
0000
1000
0100
0010
0000
0020
0000
0000
0000
0000
,
0000
0000
0130
0000
0100
0000
0010
0010
0000
1000
0000
0200
0000
0000
0000
0000
,
0000
0310
0000
0010
0000
0200
0000
0000
0320
0000
0000
0030
1000
0000
0000
0000
,
0020
0000
0000
0030
0100
0000
0000
0010
0000
0010
0000
1010
0000
0100
0000
0000
,
0000
0010
0010
0000
0010
0000
0100
0000
0010
0100
0001
0000
1000
0000
0010
0000
,
0100
0010
0100
0000
0000
0001
0000
0010
0000
0000
2000
0000
0000
0000
3010
0000
,
0010
0000
0100
0020
0000
0000
0000
0000
0000
0000
0000
0130
0000
0010
0000
0020
,
0000
0001
0000
1030
0000
0100
0010
0000
0020
0000
0000
0000
0000
0000
0000
0000
,
0000
0000
0000
0030
0000
0001
1000
0001
1000
0110
0000
0101
0000
1010
0000
0100
,
0001
0100
0000
0000
0000
0010
0100
0000
0001
0010
0100
0000
0001
1000
0000
0010
,
0100
0010
0100
0001
0000
1000
0000
0010
0100
0010
0000
0100
0001
0000
1000
0010
,
0000
0100
0000
0010
1000
0001
0000
0100
0000
0010
1000
0000
0010
0000
0100
0000
,
0010
0000
0100
0000
0001
0000
0001
0000
0010
1000
0000
0200
0000
0000
0000
0000
,
0000
0000
0300
0010
0000
0010
1000
0000
0100
0010
0000
0010
0100
0000
0010
0000
,
0100
0001
0000
1000
0010
0000
0100
0010
0000
1000
0001
0000
0100
0000
0010
0100
,
0010
0000
1000
0000
0010
0200
0000
0000
0000
0000
0310
0000
0010
0020
0000
0000
,
0000
0000
0030
1000
0000
2000
0000
0000
0000
3010
0000
0010
0010
0200
0000
0000
,
0000
0000
0000
0310
0000
0020
0000
0000
0000
0000
0000
0000
0000
0000
0000
0000
,
0000
0000
0000
0130
0000
0100
0000
0010
0000
1000
0000
0010
0000
0010
0000
0100
,
0000
0001
0100
0000
0010
0000
0100
0000
0000
0010
0000
1000
0000
0100
0000
0010
,
0010
0000
0100
0000
0001
0000
0000
1000
0000
0010
0000
0010
0100
0000
0010
0000
,
0100
0010
2000
0000
3010
0200
0000
0310
,
0010
0000
0100
0000
0020
0000
0000
0000
0130
0000
0000
0020
0000
0000
0000
0000
,
0000
0030
0100
0000
0100
0000
0020
0000
0000
0000
1030
0000
0000
0010
0000
0010
,
0101
0000
0000
0000
1010
0000
0000
0101
0000
0010
1010
0000
0000
0101
0100
0010
,
1000
0001
0110
0000
0000
1001
0000
0110
0000
1001
0000
0110
0001
1000
0110
0110
,
0000
0110
0000
0000
1001
0110
0000
1001
0010
0100
0101
0000
1010
0010
0100
0000
,
0101
0100
0001
0100
0000
0010
0000
0000
0000
0010
1000
0000
0100
0000
0010
0000
,
0010
0100
0010
0020
0000
0000
0000
0000
,
0000
0130
0100
0000
1000
0000
0200
0000
0000
0310
0000
0010
0000
0100
2000
0000
,
0100
3010
0000
0010
0000
0100
0000
0020
0000
0000
0000
0000
0000
0000
0000
0000
,
0000
0000
0130
0000
0100
0010
0000
0010
1000
0000
0100
0010
0000
0010
0100
0000
,
0010
0000
1000
0000
0010
0100
0010
0000
0100
0010
0000
0100
0000
0001
0000
1000
,
0010
0000
0100
0010
0000
1000
0000
0010
0100
0000
0001
0100
0010
0000
1000
0000
,
0010
0100
0000
0010
0100
0002
0000
0000
0000
0000
0000
0000
0000
0000
0000
0000
,
0000
0103
0010
0000
0010
0200
0000
0000
0020
0300
0000
0000
0000
0000
0000
0000
,
0000
0000
0000
0000
,
1030
0010
0000
0010
0000
0100
0010
0000
0000
2000
0000
0000
0000
0000
0000
0000
,
0000
0000
0000
0000
,
0000
3000
0010
0000
0000
0100
0020
0000
0000
0000
0000
0000
0000
0000
0000
0000
,
2030
0000
0100
3010
0000
0020
0000
0000
0000
0130
0000
0010
0000
0010
0000
1000
,
0100
0010
0000
0010
0000
0100
0010
0000
0000
0100
0001
1000
0000
0010
0100
0010
,
0100
0000
0001
0000
1000
0010
0100
0010
0100
0001
0000
1010
0000
0100
0000
0000
,
0010
0000
0010
1000
0001
0000
0100
0010
0000
0010
0000
1000
0010
0100
0000
0010
,
0000
0100
0001
0000
1000
0010
0100
0000
0010
0000
0100
0010
0000
1000
0001
0100
,
0000
0010
0100
0010
0000
0100
0010
0000
0010
0000
1000
0010
0100
0000
0010
0100
,
0001
0000
0001
0001
0000
0020
0000
0000
0000
0000
0000
0000
0000
0000
0000
0000
,
0000
0000
0000
0000
0000
0000
0000
0000
0000
0030
2000
0000
0000
0000
0000
0000
,
0000
3010
0000
0010
0000
0100
0000
0000
0010
0000
0100
0000
0001
0000
0000
0000
,
0100
0000
0000
0010
0000
0000
0100
0000
0010
0000
1000
0000
0010
0000
0000
0100
,
0000
0010
0000
0000
0100
0000
0010
0000
0000
0100
0010
0000
0000
1000
0001
0000
,
0100
0010
0000
0000
0000
0010
0000
0001
0000
0001
0000
0002
0000
0000
0000
0000
,
0000
0003
0000
0000
0010
0000
0100
0000
0010
0000
1000
0000
0010
0000
0100
0000
,
0010
0000
0100
0000
0001
0000
0010
0000
0000
1000
0000
0100
0010
0000
0000
0100
,
0000
0010
0000
0100
0000
0010
0000
0000
0000
0010
0000
0200
0000
0000
0310
0000
,
0010
0000
1000
0020
0000
0000
0000
0000
0000
0000
0030
0100
0000
0010
0000
0100
,
0000
0010
1000
0000
0001
0000
0001
0000
0100
0010
2000
0020
0000
0000
0000
0000
,
0000
0000
0000
0000
0000
0000
0000
3030
1010
0010
1000
1010
0000
1010
0000
0000
,
0101
0100
0010
1000
0001
0000
0110
1001
0000
0110
0000
1001
0000
0110
0000
1001
,
0000
0110
0001
1000
0000
0110
0000
0101
0110
0000
1001
0000
0110
0000
1000
0000
,
0110
0000
1001
0000
0110
0001
0100
0010
1000
0001
0100
0010
1000
0001
0000
0110
,
0000
0110
0110
0000
1001
0000
0010
0100
0110
0000
0202
0000
0000
0000
0000
0000
,
0000
0000
0303
1010
0000
1010
0000
0001
0100
0110
0000
1001
0000
0110
0000
1001
,
0000
0110
0001
1000
0000
0110
0001
0100
0000
0110
0000
1001
0000
0110
0000
0110
,
0001
1000
0010
0100
0202
0000
0000
0000
0000
0303
0000
1010
0020
2000
0000
0000
,
0000
0000
3030
0110
0000
0220
0000
0000
0000
0330
0101
0000
0202
0000
0000
0000
,
0303
0010
1000
1010
0000
0000
2202
0000
0000
0000
0000
0000
0000
0000
0000
0000
,
0000
0000
0300
3113
0000
0110
0000
0000
1000
0010
1010
0000
0010
0100
0001
0100
,
0000
0010
1000
0010
0000
0110
0000
0101
0000
0000
0110
0000
0000
0000
1010
0001
,
0100
0010
0100
0001
0000
1010
0000
0000
0101
0000
0000
1010
0000
0001
0100
0000
,
0101
0101
0000
0000
1010
0000
1010
0000
0001
0100
0000
0101
0000
0100
0010
0000
,
1001
1010
0000
0001
1000
0111
0000
0000
0110
0000
0000
0202
0000
0000
0000
0000
,
0303
0110
0000
0220
0000
0000
0330
1010
0000
2020
0000
0000
0000
3030
0101
0000
,
0101
0000
0101
0000
0000
0000
1010
0000
0000
0000
2222
0000
0000
0000
0000
3333
,
0000
2222
0000
0000
0000
0000
0000
0000
0000
3333
0000
0000
0000
0000
0000
0000
;
